Monday, April 29, 2019

The Graham Hart Show - With Brizer 2019.04.29


Brizer's guest: Sakti, discussing the esoteric links between the events that took place in Christchurch, Notre Dame and Sri Lanka.

Graham Hart - Hoax Train.mp3

Cornwall Stream
Mami's Archive
The Graham Hart Show Players




Download

Golden Brown - The Strangers



Serbia Strong - Perfect Loop

Hardcore Henry - Building Shootout Scene

Ognir Podcast Tarrant 16:55 video legit, people definitely died

The higher quality 318MB posted here by Zap is a game changer.

There are odd things in the video but Tarrant I believe is the gunman at the Al Noor mosque and am not sure about the numbers tho.


Let's be real



WHO ARE THE REAL TERRORISTS?

Nothing we can say or do
will enable us to live forever

 Priests are not to be reasoned with, they are to be locked up. — Nietszche

Lying is as old as humanity itself. We all tell ourselves the biggest lie of all, but most don’t remember it until our final moments close in.

So much military mayhem over the centuries has been blamed on religious differences, but wars are always about material gain and blaming creeds for them is simply a clever way of covering up crimes being committed under the rubric of some pretentiously noble but invariably criminal rationalization.

Two of America’s longest wars, Iraq and Afghanistan, provide us perfect examples of this — Iraq for its oil and Afghanistan for its drugs, the two main commodities that keep the Deep State in power.

How is it that government can lie to us repeatedly? Well, they learned it from religion, which pretends to believe all these amazing tales that wind up concealing a hidden bottom line that seems to be that priests can’t keep their dirty hands off the kids, and that’s where secrets come from, both in church and in government, across time.

The David Duke Show 2019.04.29


Dr. David Ernest Duke (born 1 July 1950) is a European American best known as an advocate for the rights of Europeans in the United States and around the world as well as criticisms of Jewish supremacism. Duke has been a prolific author, politician and media personality whose works have reached very large audiences. Consequently he has often been attacked and misrepresented in various ways.

Today: Dr Duke & Atty Augustus on Why the Chabad Shooter Attack only Harms the Cause of White Survival

DavidDuke.com
Rense Archive

 




64k CF Download

The Andrew Carrington Hitchcock Show 981 - 2019.04.29


Andrew Carrington Hitchcock (born ca. 1973) is the author of the widely imitated and hugely influential modern historical work, "The Synagogue of Satan", which has been translated into numerous languages and featured on bestseller lists worldwide. His second book is entitled "In The Name of Yahweh". "The Synagogue Of Satan," was an education in who controls the world and how they do it, "In The Name Of Yahweh," shows us why they are in control, and how their control can be broken.

Dr. Adrian Krieg – Almost Live With Adrian And Andy #74: With Special Guest Mark Dankof

Info Page

Andrew Carrington Hitchcock.com
The Synagogue Of Satan.com
EuroFolkRadio.com
 




Download

Full Video: New zealand Christchurch Mosque Shooting (Updated)

This is a better version of the video. You can clearly see the spent rounds on the carpet and pavement so with this video, the magic bullet non sense goes out the window. Speaking of windows, I still can't explain the windshield.

The video seems to be from a different source which was probably higher in resolution. It seems to have been transcoded down to the same resolution as the original one but with a higher bit rate. The audio is slightly better too.

We are still left with the Hardcore Henry low resolution version.

Full Specs Of  Original Video

General

Complete name                    : Full Video New zealand Christchurch Mosque Shooting.mp4
Format                           : MPEG-4
Format profile                   : Base Media / Version 2
Codec ID                         : mp42
File size                        : 77.4 MiB
Duration                         : 16mn 55s
Overall bit rate                 : 639 Kbps
Encoded date                     : UTC 2019-03-15 09:27:52
Tagged date                      : UTC 2019-03-15 09:27:52

Video

ID                               : 1
Format                           : AVC
Format/Info                      : Advanced Video Codec
Format profile                   : Baseline@L3.0
Format settings, CABAC           : No
Format settings, ReFrames        : 1 frame
Codec ID                         : avc1
Codec ID/Info                    : Advanced Video Coding
Duration                         : 16mn 55s
Bit rate mode                    : Variable
Bit rate                         : 540 Kbps
Width                            : 640 pixels
Height                           : 352 pixels
Display aspect ratio             : 16/9
Frame rate mode                  : Variable
Frame rate                       : 30.000 fps
Resolution                       : 24 bits
Colorimetry                      : 4:2:0
Scan type                        : Progressive
Bits/(Pixel*Frame)               : 0.080
Stream size                      : 65.4 MiB (85%)
Title                            : ISO Media file produced by Google Inc. Created on: 03/15/2019.
Writing library                  : x264 core 155 r2901 7d0ff22
Encoded date                     : UTC 2019-03-15 09:27:52
Tagged date                      : UTC 2019-03-15 09:27:52

Audio

ID                               : 2
Format                           : AAC
Format/Info                      : Advanced Audio Codec
Format version                   : Version 4
Format profile                   : LC
Format settings, SBR             : No
Codec ID                         : 40
Duration                         : 16mn 55s
Bit rate mode                    : Variable
Bit rate                         : 96.0 Kbps
Channel(s)                       : 2 channels
Channel positions                : L R
Sampling rate                    : 44.1 KHz
Resolution                       : 16 bits
Stream size                      : 11.6 MiB (15%)
Title                            : ISO Media file produced by Google Inc. Created on: 03/15/2019.
Encoded date                     : UTC 2019-03-15 09:27:52
Tagged date                      : UTC 2019-03-15 09:27:52


Full Specs Of Updated Video

General

Complete name                    : Full Video ChristchurchV2.mp4
Format                           : MPEG-4
Format profile                   : Base Media
Codec ID                         : isom
File size                        : 318 MiB
Duration                         : 16mn 55s
Overall bit rate                 : 2 624 Kbps
Writing application              : Lavf57.56.101

Video

ID                               : 1
Format                           : AVC
Format/Info                      : Advanced Video Codec
Format profile                   : High@L3.0
Format settings, CABAC           : Yes
Format settings, ReFrames        : 4 frames
Codec ID                         : avc1
Codec ID/Info                    : Advanced Video Coding
Duration                         : 16mn 55s
Bit rate mode                    : Variable
Bit rate                         : 2 500 Kbps
Width                            : 648 pixels
Height                           : 360 pixels
Display aspect ratio             : 16/9
Frame rate mode                  : Variable
Frame rate                       : 30.000 fps
Resolution                       : 24 bits
Colorimetry                      : 4:2:0
Scan type                        : Progressive
Bits/(Pixel*Frame)               : 0.357
Stream size                      : 302 MiB (95%)
Writing library                  : x264 core 148 r2748 97eaef2
Encoding settings                : cabac=1 / ref=3 / deblock=1:0:0 / analyse=0x3:0x113 / me=hex / subme=7 / psy=1 / psy_rd=1.00:0.00 / mixed_ref=1 / me_range=16 / chroma_me=1 / trellis=1 / 8x8dct=1 / cqm=0 / deadzone=21,11 / fast_pskip=1 / chroma_qp_offset=-2 / threads=11 / lookahead_threads=1 / sliced_threads=0 / nr=0 / decimate=1 / interlaced=0 / bluray_compat=0 / constrained_intra=0 / bframes=3 / b_pyramid=2 / b_adapt=1 / b_bias=0 / direct=1 / weightb=1 / open_gop=0 / weightp=2 / keyint=250 / keyint_min=25 / scenecut=40 / intra_refresh=0 / rc_lookahead=40 / rc=abr / mbtree=1 / bitrate=2500 / ratetol=1.0 / qcomp=0.60 / qpmin=0 / qpmax=69 / qpstep=4 / ip_ratio=1.40 / aq=1:1.00

Audio

ID                               : 2
Format                           : AAC
Format/Info                      : Advanced Audio Codec
Format version                   : Version 4
Format profile                   : LC
Format settings, SBR             : No
Codec ID                         : 40
Duration                         : 16mn 55s
Bit rate mode                    : Variable
Bit rate                         : 122 Kbps
Maximum bit rate                 : 128 Kbps
Channel(s)                       : 2 channels
Channel positions                : L R
Sampling rate                    : 48.0 KHz
Resolution                       : 16 bits
Stream size                      : 14.7 MiB (5%)

Thanks to Ognir for the Polish URL in the comment section 

SERBIA STRONG!

NZ Shooting Exposed, Vinny Eastwood & Max Igan On PSEC with Dave Kelso